<?xml version="1.0" standalone="no"?>
<!DOCTYPE svg PUBLIC "-//W3C//DTD SVG 1.1//EN" "https://www.w3.org/Graphics/SVG/1.1/DTD/svg11.dtd" >
<svg xmlns="https://www.w3.org/2000/svg">
<metadata>
This is a custom SVG webfont generated by Font Squirrel.
Copyright   : Copyright c 2010 by Svetoslav Simov All rights reserved
Designer    : Svetoslav Simov
Foundry     : Svetoslav Simov
Foundry URL : httpfontfabriccom
</metadata>
<defs>
<font id="CodeLightRegular" horiz-adv-x="1204" >
<font-face units-per-em="2048" ascent="1434" descent="-614" />
<missing-glyph horiz-adv-x="720" />
<glyph unicode=" "  horiz-adv-x="720" />
<glyph unicode="&#x09;" horiz-adv-x="720" />
<glyph unicode="&#xa0;" horiz-adv-x="720" />
<glyph unicode="!" horiz-adv-x="208" d="M74 20q0 33 32.5 33t32.5 -33q0 -12 -9 -21t-23.5 -9t-23.5 9t-9 21zM90 182v1245h33v-1245h-33z" />
<glyph unicode="&#x22;" horiz-adv-x="346" d="M90 1030v406h33v-406h-33zM219 1030v406h33v-406h-33z" />
<glyph unicode="$" horiz-adv-x="1083" d="M47 350l33 4l2 -14q14 -147 148.5 -233.5t293.5 -90.5v691q-84 8 -134 16t-117.5 29.5t-106.5 54.5t-68.5 90t-36.5 137q-12 135 68 240q63 82 168.5 127t226.5 49v121h29v-121q164 -2 290 -83t154 -228l2 -17l-30 -6l-2 17q-18 90 -78 155q-121 127 -336 131v-684 l109 -12q35 -4 97 -16.5t96 -30t75 -44t64.5 -68.5t35.5 -95q31 -141 -35.5 -254t-185.5 -169t-256 -60v-133h-29v133q-109 4 -210 42t-177 118.5t-88 189.5zM92 1036q6 -72 34 -124t63.5 -81.5t98 -49t110.5 -28t126 -16.5v682q-250 -8 -368 -164q-74 -90 -64 -219zM553 16 q127 4 237.5 54.5t173 155t35.5 237.5q-10 49 -31.5 85t-59.5 60.5t-70.5 41t-90 26.5t-92 15t-102.5 11v-686z" />
<glyph unicode="&#x26;" horiz-adv-x="1171" d="M55 406q12 113 80 202.5t207 124.5l66 6v4l-66 9q-215 70 -215 335q0 106 55.5 189.5t140.5 125.5t188 52t195.5 -14.5t165 -89t95.5 -158.5l-31 -6q-20 86 -87 144.5t-153 80t-181 13t-174 -47.5t-131 -113.5t-52 -172.5q0 -143 84 -239.5t270 -96.5h664v-31h-164v-408 q-23 -141 -136.5 -233t-322.5 -96q-250 -4 -382 121t-116 299zM88 399q-12 -154 108.5 -268.5t356.5 -114.5q193 0 300.5 86t127.5 217v404h-469q-205 6 -309.5 -89.5t-114.5 -234.5z" />
<glyph unicode="'" horiz-adv-x="239" d="M102 1030v406h33v-406h-33z" />
<glyph unicode="," horiz-adv-x="215" d="M-12 -195l98 248h55l-121 -248h-32z" />
<glyph unicode="." horiz-adv-x="225" d="M82 31q0 41 37 41q41 0 41 -41q0 -14 -11.5 -25.5t-29.5 -11.5q-14 0 -25.5 11.5t-11.5 25.5z" />
<glyph unicode="0" horiz-adv-x="1130" d="M49.5 566.5q-26.5 154.5 0 308t86 281.5t172 208t258 80t258 -80t172 -208t86 -281.5t0 -308t-86 -282.5t-172 -208t-258 -80t-258 80t-172 208t-86 282.5zM70 720q0 -179 52 -333t169 -256t274.5 -102t274 102t169 256t52.5 333t-52.5 332.5t-169 256t-274 102.5 t-274.5 -102.5t-169 -256t-52 -332.5z" />
<glyph unicode="1" horiz-adv-x="485" d="M-2 944l350 490h33v-1434h-31v1339l6 58h-2l-28 -47l-306 -422z" />
<glyph unicode="2" horiz-adv-x="1042" d="M45 2v31l733 622q184 160 191 355q4 164 -116 280.5t-331 116.5t-329.5 -128t-118.5 -302h-29q0 188 126 324.5t351.5 136.5t354.5 -123t124 -299q-2 -219 -198 -383l-713 -600h899v-31h-944z" />
<glyph unicode="3" horiz-adv-x="1036" d="M39 315q23 -143 137.5 -236t321.5 -93q248 0 381 127t116 293q-10 113 -96 202.5t-231 126.5l-66 4v4l66 9q123 41 189.5 133t66.5 202q0 106 -55.5 189.5t-140.5 125.5t-188.5 52t-195.5 -14.5t-165 -89t-95 -158.5l31 -6q20 86 86.5 144.5t152.5 80t181.5 13t174 -47.5 t131 -113.5t52.5 -172.5q0 -137 -102.5 -236.5t-292.5 -99.5h-101v-31h2h2h2h3h4h2h4h4h4h4h6h4h6h9h6h8h10h21q127 0 227 -39t152.5 -101.5t76 -138t0 -150.5t-76 -137.5t-152.5 -101.5t-227 -39q-193 0 -300.5 86t-127.5 217z" />
<glyph unicode="4" horiz-adv-x="1032" d="M20 371v30l816 1037h32v-1037h133v-30h-133v-371h-30v371h-818zM59 401h779v942l6 58h-2l-29 -47z" />
<glyph unicode="5" horiz-adv-x="1040" d="M39 303l29 10q45 -127 154.5 -203.5t279.5 -76.5q221 0 343 128t120 304q0 121 -64.5 226.5t-185.5 156.5q-254 109 -606 -47l-37 18v582v31h30h801v-31h-801v-570q150 72 300.5 88.5t316.5 -40.5q133 -55 204.5 -167t73.5 -247q2 -188 -129 -326.5t-366 -138.5 q-180 0 -298 84t-165 219z" />
<glyph unicode="6" horiz-adv-x="1058" d="M36 499q9 126 79 228l501 709h39l-372 -527l-80 -94l2 -2l74 51q109 57 249 58q135 0 242 -51.5t162 -132.5t80.5 -179t0 -196.5t-80.5 -179.5t-161.5 -132t-242.5 -51q-166 0 -285.5 76t-167.5 186.5t-39 236.5zM63 461q0 -80 31 -157t86.5 -137.5t145.5 -97 t202.5 -36.5t202.5 36.5t145.5 97t86 137.5t30.5 157t-30.5 156.5t-86 137t-145.5 97.5t-202.5 37t-202.5 -37t-145.5 -97.5t-86.5 -137t-31 -156.5z" />
<glyph unicode="7" horiz-adv-x="1011" d="M23 1401v31h960v-33l-766 -1399h-39l766 1401h-921z" />
<glyph unicode="8" horiz-adv-x="1060" d="M42 320.5q-15 91.5 13.5 175.5t107.5 153.5t193 98.5l88 6v4l-86 8q-123 41 -188.5 134t-65.5 204q2 172 129 266t297 94q201 0 313.5 -107.5t112.5 -254.5q0 -111 -66.5 -204t-189.5 -132l-65 -8l-2 -4l67 -4q117 -29 196 -99.5t108.5 -154.5t15.5 -175.5t-70.5 -166 t-166 -122.5t-253 -48t-252 48t-165 122.5t-71.5 166zM68 376q0 -93 49 -174t157.5 -134.5t256 -53.5t256 53.5t157.5 134.5t49 174t-49 174t-157.5 134t-256 53t-256 -53t-157.5 -134t-49 -174zM135 1102q0 -135 103.5 -234.5t292 -99.5t291 99.5t102.5 236.5 q0 160 -119 245t-275 85q-158 0 -276.5 -86t-118.5 -246z" />
<glyph unicode="9" horiz-adv-x="1064" d="M54.5 876.5q-25.5 98.5 0 196.5t80.5 180t161.5 133.5t242.5 51.5q166 0 285.5 -76t167.5 -186.5t39 -237.5t-79 -227l-501 -711h-37l370 526l80 97h-2l-74 -52q-109 -57 -249 -57q-135 0 -242 51t-162 132t-80.5 179.5zM76 975.5q0 -111.5 49 -206.5t157.5 -158.5 t256 -63.5t257 63.5t159 158.5t49.5 206.5t-49.5 207t-159 159t-257 63.5t-256 -63.5t-157.5 -159t-49 -207z" />
<glyph unicode=":" horiz-adv-x="245" d="M82 31q0 41 37 41q41 0 41 -41q0 -14 -11.5 -25.5t-29.5 -11.5q-14 0 -25.5 11.5t-11.5 25.5zM82 700q0 41 37 41q41 0 41 -41q0 -14 -11.5 -25t-29.5 -11q-14 0 -25.5 11t-11.5 25z" />
<glyph unicode=";" horiz-adv-x="245" d="M2 -195h33l121 248h-58zM82 700q0 41 37 41q41 0 41 -41q0 -14 -11.5 -25t-29.5 -11q-14 0 -25.5 11t-11.5 25z" />
<glyph unicode="?" horiz-adv-x="985" d="M23 1180q53 115 162.5 183.5t267.5 68.5q223 0 353 -125t126 -301q-2 -78 -23.5 -138.5t-66.5 -103.5t-80 -65.5t-94 -55.5l-78 -43t-58.5 -42t-50 -63.5t-12.5 -78.5l2 -234h-33v236q0 51 16.5 91t56.5 72.5t65.5 48t87.5 46.5q72 39 113.5 69.5t80.5 99t41 159.5 q4 164 -115.5 280.5t-330.5 116.5q-147 0 -250 -64.5t-154 -171.5q-6 2 -15 7.5t-11 7.5zM422 20q0 33 33 33q12 0 21 -9t9 -24q0 -12 -9 -21t-21 -9q-14 0 -23.5 9t-9.5 21z" />
<glyph unicode="A" d="M8 0l576 1454h34l576 -1454h-35l-196 481h-725l-195 -481h-35zM252 512h698l-350 899z" />
<glyph unicode="B" horiz-adv-x="1150" d="M96 0v1432h580q111 0 187.5 -55.5t113.5 -147.5q26 -69 25.5 -138t-25.5 -139q-51 -129 -168 -178q100 -18 172 -82.5t100 -150.5q24 -71 24 -148q0 -17 -1 -34q-6 -95 -47 -175t-126 -132t-198 -52h-637zM129 31h604q109 0 190 53t116.5 133t35.5 173t-35.5 173 t-116.5 133.5t-190 53.5h-604v-719zM129 782h547q199 0 272 183q25 62 25 125t-25 127q-74 182 -272 182h-547v-617z" />
<glyph unicode="C" horiz-adv-x="1454" d="M55 715q0 293 205 504t496 211t495 -211q96 -98 148 -224h-35q-47 111 -135 201q-195 201 -473.5 201t-472.5 -201q-197 -203 -197 -481q0 -281 197 -482q197 -203 473 -202.5t473 202.5q90 92 135 199h35q-51 -125 -148 -223q-205 -211 -495.5 -211t-495.5 211t-205 506 z" />
<glyph unicode="D" horiz-adv-x="1333" d="M94 0v1432h484q170 0 307 -61.5t222 -162t131 -229.5t46 -263t-46 -263t-131 -229.5t-222 -162t-307 -61.5h-484zM125 31h453q215 0 372.5 101t228 254t70.5 330t-70.5 329.5t-228 254t-372.5 101.5h-453v-1370z" />
<glyph unicode="E" horiz-adv-x="944" d="M96 0v1432h791v-31h-758v-668h741v-33h-741v-669h762v-31h-791h-4z" />
<glyph unicode="F" horiz-adv-x="903" d="M96 0v1432h772v-31h-741v-668h655v-33h-655v-700h-31z" />
<glyph unicode="G" horiz-adv-x="1484" d="M55 715q0 297 205 516q205 215 498 215q215 0 394 -121t249 -321h-35q-72 188 -240 298.5t-368 110.5q-274 0 -475 -207q-195 -209 -195 -491q0 -287 195 -492q197 -207 475 -207q219 0 412.5 154t232.5 377h-633v33h674q-6 -70 -35 -144q-70 -193 -262.5 -323.5 t-388.5 -130.5q-291 0 -498 217q-205 215 -205 516z" />
<glyph unicode="H" horiz-adv-x="1153" d="M96 0v1432h31v-691h899v691h33v-1432h-33v711h-899v-711h-31z" />
<glyph unicode="I" horiz-adv-x="698" d="M29 0v31h305v1372h-305v29h641v-29h-305v-1372h305v-31h-641z" />
<glyph unicode="J" horiz-adv-x="808" d="M20 0v33q297 0 482.5 144.5t185.5 428.5v797h-442v29h473v-826q0 -299 -195 -452.5t-504 -153.5z" />
<glyph unicode="K" horiz-adv-x="976" d="M96 0v1432h31v-1432h-31zM174 700v33l713 699h41l-725 -713l813 -719h-47z" />
<glyph unicode="L" horiz-adv-x="931" d="M96 0v1432h33v-1399h770v-33h-803z" />
<glyph unicode="M" horiz-adv-x="1447" d="M96 0v1434h33l594 -879l596 879h33v-1434h-31v1386l-584 -868h-26l-584 868v-1386h-31z" />
<glyph unicode="N" d="M96 0v1436l29 -2l952 -1377v1377h31v-1434h-33l-946 1368v-1368h-33z" />
<glyph unicode="O" horiz-adv-x="1552" d="M43 717q0 301 215 520q211 217 516 217t518 -217q215 -219 215 -520t-215 -520q-213 -217 -518 -217t-516 217q-215 219 -215 520zM76 717q0 -287 204.5 -496t493.5 -209q291 0 496 209q203 207 203 496t-203 495q-205 209 -496 209q-289 0 -493.5 -208.5t-204.5 -495.5z " />
<glyph unicode="P" horiz-adv-x="1067" d="M96 0v1417v17h17h479q104 0 188 -38t135.5 -100.5t79 -142.5t27.5 -164t-27.5 -164t-79 -142t-135.5 -100t-188 -38h-463v-545h-33zM129 575h463q96 0 174 36t126 93.5t73.5 132t25.5 151.5t-25.5 151.5t-73.5 132t-126 93.5t-174 36h-463v-826z" />
<glyph unicode="Q" horiz-adv-x="1568" d="M51 717q0 301 215 520q211 217 516 217t518 -217q215 -219 215.5 -520t-215.5 -520l222 -197h-54l-194 172q-205 -193 -492 -192q-305 0 -516 217q-215 219 -215 520zM84 717q0 -287 205 -496t493 -209q268 0 467 183l-432 383h49l408 -361l4 4q205 209 205 496 t-205 495.5t-496 208.5q-289 0 -493.5 -208.5t-204.5 -495.5z" />
<glyph unicode="R" horiz-adv-x="1079" d="M96 0v1417v17h17h479q104 0 188 -36t135.5 -95.5t79 -134t27.5 -153.5t-27.5 -154t-79 -134t-135.5 -95t-188 -36h-232l660 -596h-47l-660 596v31h279q127 0 220 57t135 143t42 186.5t-42 186.5t-135 143.5t-220 57.5h-465v-1401h-31z" />
<glyph unicode="S" horiz-adv-x="1124" d="M72 350l32 4l2 -14q16 -152 155.5 -238t301.5 -86q207 0 355 123q115 96 115 240q0 40 -9 84q-18 86 -78.5 137t-141.5 69.5t-176.5 28t-186.5 22.5t-168.5 40.5t-128 96.5t-58.5 177q-2 18 -2 36q0 114 70 204q102 133 297 169q59 11 116 11q131 0 250 -57 q172 -82 205 -258l2 -17l-31 -6l-2 17q-18 90 -78 155q-123 131 -344 131h-14q-111 -2 -212 -43t-163 -121q-65 -79 -65 -188q0 -15 2 -31q8 -102 58 -164.5t127 -87t169 -37t186.5 -21.5t176 -30.5t142 -78t81.5 -148.5q10 -44 10 -86q0 -61 -21 -117q-36 -94 -111 -153.5 t-172 -93t-202 -33.5q-174 0 -322.5 94t-164.5 256z" />
<glyph unicode="T" horiz-adv-x="1067" d="M18 1401v33h1022v-33h-495v-1407h-31v1407h-496z" />
<glyph unicode="U" horiz-adv-x="1206" d="M102 389v1043h33v-1045q0 -174 143.5 -272.5t325.5 -98.5t325.5 99.5t143.5 273.5v1043h33v-1045q0 -125 -78 -220t-189.5 -139t-234.5 -44q-195 0 -348.5 108.5t-153.5 296.5z" />
<glyph unicode="V" horiz-adv-x="1208" d="M12 1432h35l557 -1414l559 1414h35l-575 -1455h-35z" />
<glyph unicode="W" horiz-adv-x="1742" d="M8 1432h33l461 -1393l344 975h45l344 -975l463 1393h33l-480 -1446h-28l-355 1001l-352 -1001h-29z" />
<glyph unicode="X" horiz-adv-x="1110" d="M20 0l519 715l-519 717h39l498 -689l500 689h37l-519 -717l519 -715h-37l-500 688l-498 -688h-39z" />
<glyph unicode="Y" horiz-adv-x="1103" d="M8 1432h39l504 -807l504 807h39l-527 -840v-592h-32v592z" />
<glyph unicode="Z" horiz-adv-x="1132" d="M20 29l1041 1370h-995v33h1011l23 -37l-1039 -1364h1043v-31h-1065z" />
<glyph unicode="`" horiz-adv-x="503" d="M152 1640h55l119 -153h-39z" />
<glyph unicode="a" d="M8 0l576 1454h34l576 -1454h-35l-196 481h-725l-195 -481h-35zM252 512h698l-350 899z" />
<glyph unicode="b" horiz-adv-x="1150" d="M96 0v1432h580q111 0 187.5 -55.5t113.5 -147.5q26 -69 25.5 -138t-25.5 -139q-51 -129 -168 -178q100 -18 172 -82.5t100 -150.5q24 -71 24 -148q0 -17 -1 -34q-6 -95 -47 -175t-126 -132t-198 -52h-637zM129 31h604q109 0 190 53t116.5 133t35.5 173t-35.5 173 t-116.5 133.5t-190 53.5h-604v-719zM129 782h547q199 0 272 183q25 62 25 125t-25 127q-74 182 -272 182h-547v-617z" />
<glyph unicode="c" horiz-adv-x="1458" d="M55 715q0 293 205 504t496 211t495 -211q96 -98 148 -224h-35q-47 111 -135 201q-195 201 -473.5 201t-472.5 -201q-197 -203 -197 -481q0 -281 197 -482q197 -203 473 -202.5t473 202.5q90 92 135 199h35q-51 -125 -148 -223q-205 -211 -495.5 -211t-495.5 211t-205 506 z" />
<glyph unicode="d" horiz-adv-x="1333" d="M94 0v1432h484q170 0 307 -61.5t222 -162t131 -229.5t46 -263t-46 -263t-131 -229.5t-222 -162t-307 -61.5h-484zM125 31h453q215 0 372.5 101t228 254t70.5 330t-70.5 329.5t-228 254t-372.5 101.5h-453v-1370z" />
<glyph unicode="e" horiz-adv-x="944" d="M96 0v1432h791v-31h-758v-668h741v-33h-741v-669h762v-31h-791h-4z" />
<glyph unicode="f" horiz-adv-x="903" d="M96 0v1432h772v-31h-741v-668h655v-33h-655v-700h-31z" />
<glyph unicode="g" horiz-adv-x="1476" d="M55 715q0 297 205 516q205 215 498 215q215 0 394 -121t249 -321h-35q-72 188 -240 298.5t-368 110.5q-274 0 -475 -207q-195 -209 -195 -491q0 -287 195 -492q197 -207 475 -207q219 0 412.5 154t232.5 377h-633v33h674q-6 -70 -35 -144q-70 -193 -262.5 -323.5 t-388.5 -130.5q-291 0 -498 217q-205 215 -205 516z" />
<glyph unicode="h" horiz-adv-x="1153" d="M96 0v1432h31v-691h899v691h33v-1432h-33v711h-899v-711h-31z" />
<glyph unicode="i" horiz-adv-x="737" d="M49 0v31h305v1372h-305v29h641v-29h-305v-1372h305v-31h-641z" />
<glyph unicode="j" horiz-adv-x="806" d="M14 0v33q297 0 482.5 144.5t185.5 428.5v797h-442v29h473v-826q0 -299 -195 -452.5t-504 -153.5z" />
<glyph unicode="k" horiz-adv-x="976" d="M96 0v1432h31v-1432h-31zM174 700v33l748 699h41l-760 -713l794 -719h-47z" />
<glyph unicode="l" horiz-adv-x="931" d="M96 0v1432h33v-1399h770v-33h-803z" />
<glyph unicode="m" horiz-adv-x="1447" d="M96 0v1434h33l594 -879l596 879h33v-1434h-31v1386l-584 -868h-26l-584 868v-1386h-31z" />
<glyph unicode="n" d="M96 0v1436l29 -2l952 -1377v1377h31v-1434h-33l-946 1368v-1368h-33z" />
<glyph unicode="o" horiz-adv-x="1576" d="M59 717q0 301 215 520q211 217 516.5 217t518.5 -217q215 -219 215 -520t-215 -520q-213 -217 -518.5 -217t-516.5 217q-215 219 -215 520zM92 717q0 -287 205 -496t494 -209q291 0 495 209q203 207 203 496t-203 495q-205 209 -495 209q-289 0 -494 -208.5t-205 -495.5z " />
<glyph unicode="p" horiz-adv-x="1075" d="M96 0v1417v17h17h479q104 0 188 -38t135.5 -100.5t79 -142.5t27.5 -164t-27.5 -164t-79 -142t-135.5 -100t-188 -38h-463v-545h-33zM129 575h463q96 0 174 36t126 93.5t73.5 132t25.5 151.5t-25.5 151.5t-73.5 132t-126 93.5t-174 36h-463v-826z" />
<glyph unicode="q" horiz-adv-x="1568" d="M43 717q0 303 215 520t516 217q303 0 520 -216t217 -521q0 -297 -219 -520l221 -197h-53l-194 172q-205 -193 -492 -192q-301 0 -516 217t-215 520zM76 717q0 -289 204.5 -497t493.5 -208q268 0 467 183l-432 383h49l408 -361l4 4q205 209 205 496q0 291 -206 497.5 t-495 206.5t-493.5 -207.5t-204.5 -496.5z" />
<glyph unicode="r" horiz-adv-x="1083" d="M96 0v1417v17h17h479q104 0 188 -36t135.5 -95.5t79 -134t27.5 -153.5t-27.5 -154t-79 -134t-135.5 -95t-188 -36h-232l660 -596h-47l-660 596v31h279q127 0 220 57t135 143t42 186.5t-42 186.5t-135 143.5t-220 57.5h-465v-1401h-31z" />
<glyph unicode="s" horiz-adv-x="1114" d="M55 350l33 4l2 -14q16 -152 155.5 -238t301.5 -86q207 0 354 123q115 96 116 240q0 40 -9 84q-18 86 -79 137t-141.5 69.5t-176 28t-186.5 22.5t-169 40.5t-128 96.5t-58 177q-2 18 -2 36q0 114 69 204q102 133 297 169q59 11 117 11q131 0 250 -57q172 -82 205 -258 l2 -17l-31 -6l-2 17q-18 90 -78 155q-123 131 -345 131h-13q-111 -2 -212.5 -43t-162.5 -121q-65 -79 -65 -188q0 -15 1 -31q8 -102 58.5 -164.5t127 -87t168 -37t185.5 -21.5t176 -30.5t142.5 -78t80.5 -148.5q10 -45 11 -87q0 -60 -21 -116q-35 -94 -109.5 -153.5 t-172 -93t-201.5 -33.5q-174 0 -322.5 94t-165.5 256z" />
<glyph unicode="t" horiz-adv-x="1067" d="M18 1401v33h1022v-33h-495v-1401h-31v1401h-496z" />
<glyph unicode="u" horiz-adv-x="1191" d="M94 389v1043h33v-1045q0 -174 143.5 -272.5t325.5 -98.5t325.5 99.5t143.5 273.5v1043h33v-1045q0 -125 -78 -220t-189.5 -139t-234.5 -44q-195 0 -348.5 108.5t-153.5 296.5z" />
<glyph unicode="v" horiz-adv-x="1208" d="M12 1432h35l557 -1414l559 1414h35l-575 -1455h-35z" />
<glyph unicode="w" horiz-adv-x="1742" d="M8 1432h33l461 -1393l344 975h45l344 -975l463 1393h33l-480 -1446h-28l-355 1001l-352 -1001h-29z" />
<glyph unicode="x" horiz-adv-x="1110" d="M20 0l519 715l-519 717h39l498 -689l500 689h37l-519 -717l519 -715h-37l-500 688l-498 -688h-39z" />
<glyph unicode="y" horiz-adv-x="1103" d="M8 1432h39l504 -807l504 807h39l-527 -840v-592h-32v592z" />
<glyph unicode="z" horiz-adv-x="1134" d="M20 29l1041 1370h-995v33h1011l21 -37l-1037 -1364h1043v-31h-1065z" />
<glyph unicode="&#xa1;" horiz-adv-x="221" d="M74 1397q0 12 9 21t23.5 9t23.5 -9t9 -21q0 -33 -32.5 -33t-32.5 33zM90 -10h33v1245h-33v-1245z" />
<glyph unicode="&#xa5;" horiz-adv-x="1103" d="M8 1432h39l504 -807l504 807h39l-508 -811h229v-33h-248v-96h248v-31h-248v-461h-32v461h-222v31h222v96h-222v33h203z" />
<glyph unicode="&#xa8;" horiz-adv-x="628" d="M154 1565q0 41 36 41q41 0 41 -41q0 -14 -11 -25.5t-30 -11.5q-14 0 -25 11.5t-11 25.5zM401 1565q0 41 37 41q41 0 41 -41q0 -14 -11 -25.5t-30 -11.5q-14 0 -25.5 11.5t-11.5 25.5z" />
<glyph unicode="&#xaa;" d="M8 0l576 1454h34l576 -1454h-35l-196 481h-725l-195 -481h-35zM252 512h698l-350 899z" />
<glyph unicode="&#xb2;" horiz-adv-x="1042" d="M45 2v31l733 622q184 160 191 355q4 164 -116 280.5t-331 116.5t-329.5 -128t-118.5 -302h-29q0 188 126 324.5t351.5 136.5t354.5 -123t124 -299q-2 -219 -198 -383l-713 -600h899v-31h-944z" />
<glyph unicode="&#xb3;" horiz-adv-x="1036" d="M39 315q23 -143 137.5 -236t321.5 -93q248 0 381 127t116 293q-10 113 -96 202.5t-231 126.5l-66 4v4l66 9q123 41 189.5 133t66.5 202q0 106 -55.5 189.5t-140.5 125.5t-188.5 52t-195.5 -14.5t-165 -89t-95 -158.5l31 -6q20 86 86.5 144.5t152.5 80t181.5 13t174 -47.5 t131 -113.5t52.5 -172.5q0 -137 -102.5 -236.5t-292.5 -99.5h-101v-31h2h2h2h3h4h2h4h4h4h4h6h4h6h9h6h8h10h21q127 0 227 -39t152.5 -101.5t76 -138t0 -150.5t-76 -137.5t-152.5 -101.5t-227 -39q-193 0 -300.5 86t-127.5 217z" />
<glyph unicode="&#xb4;" horiz-adv-x="503" d="M162 1479l119 153h55l-135 -153h-39z" />
<glyph unicode="&#xb7;" horiz-adv-x="337" d="M127 674q0 41 37 41q41 0 41 -41q0 -14 -11.5 -25.5t-29.5 -11.5q-14 0 -25.5 11.5t-11.5 25.5z" />
<glyph unicode="&#xb9;" horiz-adv-x="485" d="M-2 944l350 490h33v-1434h-31v1339l6 58h-2l-28 -47l-306 -422z" />
<glyph unicode="&#xba;" horiz-adv-x="1576" d="M59 717q0 301 215 520q211 217 516.5 217t518.5 -217q215 -219 215 -520t-215 -520q-213 -217 -518.5 -217t-516.5 217q-215 219 -215 520zM92 717q0 -287 205 -496t494 -209q291 0 495 209q203 207 203 496t-203 495q-205 209 -495 209q-289 0 -494 -208.5t-205 -495.5z " />
<glyph unicode="&#xbc;" horiz-adv-x="2185" d="M1173 371v30l816 1037h32v-1037h133v-30h-133v-371h-30v371h-818zM1212 401h779v942l6 58h-2l-29 -47zM-2 944l350 490h33v-1434h-31v1339l6 58h-2l-28 -47l-306 -422z" />
<glyph unicode="&#xbd;" horiz-adv-x="2195" d="M1198 2v31l733 622q184 160 191 355q4 164 -116 280.5t-331 116.5t-329.5 -128t-118.5 -302h-29q0 188 126 324.5t351.5 136.5t354.5 -123t124 -299q-2 -219 -198 -383l-713 -600h899v-31h-944zM-2 944l350 490h33v-1434h-31v1339l6 58h-2l-28 -47l-306 -422z" />
<glyph unicode="&#xbe;" horiz-adv-x="2736" d="M1724 371v30l816 1037h32v-1037h133v-30h-133v-371h-30v371h-818zM1763 401h779v942l6 58h-2l-29 -47zM39 315q23 -143 137.5 -236t321.5 -93q248 0 381 127t116 293q-10 113 -96 202.5t-231 126.5l-66 4v4l66 9q123 41 189.5 133t66.5 202q0 106 -55.5 189.5 t-140.5 125.5t-188.5 52t-195.5 -14.5t-165 -89t-95 -158.5l31 -6q20 86 86.5 144.5t152.5 80t181.5 13t174 -47.5t131 -113.5t52.5 -172.5q0 -137 -102.5 -236.5t-292.5 -99.5h-101v-31h2h2h2h3h4h2h4h4h4h4h6h4h6h9h6h8h10h21q127 0 227 -39t152.5 -101.5t76 -138 t0 -150.5t-76 -137.5t-152.5 -101.5t-227 -39q-193 0 -300.5 86t-127.5 217z" />
<glyph unicode="&#xbf;" horiz-adv-x="995" d="M57 416q-4 -176 126 -301t354 -125q158 0 267 68.5t163 183.5q-2 2 -11.5 7t-15.5 7q-51 -106 -153.5 -171t-249.5 -65q-211 0 -331 117t-116 281q2 90 41 158.5t81 99.5t114 69q61 31 86.5 46.5t65.5 48t56.5 72.5t16.5 92v235h-33l2 -233q0 -45 -12 -79t-50 -63.5 t-58.5 -42t-77.5 -43.5q-59 -33 -94 -55.5t-80.5 -65.5t-67 -103t-23.5 -138zM504 1401q0 12 9 21.5t22 9.5q14 0 23 -9.5t9 -21.5q0 -33 -32 -33q-12 0 -21.5 9.5t-9.5 23.5z" />
<glyph unicode="&#xc0;" d="M8 0l576 1454h34l576 -1454h-35l-196 481h-725l-195 -481h-35zM252 512h698l-350 899zM444 1659h56l118 -154h-38z" />
<glyph unicode="&#xc1;" d="M8 0l576 1454h34l576 -1454h-35l-196 481h-725l-195 -481h-35zM252 512h698l-350 899zM582 1505l118 154h56l-135 -154h-39z" />
<glyph unicode="&#xc2;" d="M8 0l576 1454h34l576 -1454h-35l-196 481h-725l-195 -481h-35zM252 512h698l-350 899zM455 1501l118 148h56l119 -148h-33l-113 123l-115 -123h-32z" />
<glyph unicode="&#xc3;" d="M8 0l576 1454h34l576 -1454h-35l-196 481h-725l-195 -481h-35zM252 512h698l-350 899zM426 1516q14 61 61 79q72 29 138 -41q37 -39 88 -22q43 18 51 59l22 -6q-14 -61 -65 -80q-63 -27 -117 29q-55 57 -110 35q-35 -14 -43 -60z" />
<glyph unicode="&#xc4;" d="M8 0l576 1454h34l576 -1454h-35l-196 481h-725l-195 -481h-35zM252 512h698l-350 899zM438 1567q0 41 37 41q41 0 41 -41q0 -14 -11 -25.5t-30 -11.5q-14 0 -25.5 11.5t-11.5 25.5zM686 1567q0 41 37 41q41 0 41 -41q0 -14 -11.5 -25.5t-29.5 -11.5q-14 0 -25.5 11.5 t-11.5 25.5z" />
<glyph unicode="&#xc5;" d="M8 0l576 1454h34l576 -1454h-35l-196 481h-725l-195 -481h-35zM252 512h698l-350 899zM496 1536q0 43 29.5 73.5t72.5 30.5t73.5 -30.5t30.5 -73.5q0 -45 -30.5 -74.5t-75.5 -29.5q-41 0 -70.5 30.5t-29.5 73.5zM532 1536q0 -29 19.5 -48.5t46.5 -19.5q29 0 48.5 19.5 t19.5 48.5t-19.5 48.5t-48.5 19.5q-27 0 -46.5 -19.5t-19.5 -48.5z" />
<glyph unicode="&#xc6;" horiz-adv-x="1695" d="M8 0l803 1434h862v-31h-758v-789h742v-30h-742v-553h762v-31h-794v584h-510l-330 -584h-35zM389 614h494v789h-52z" />
<glyph unicode="&#xc7;" horiz-adv-x="1431" d="M51 715q0 293 205 504t495.5 211t495.5 -211q96 -98 148 -224h-35q-47 111 -135 201q-195 201 -473.5 201t-472.5 -201q-197 -203 -197 -481q0 -281 197 -482q197 -203 473 -202.5t473 202.5q90 92 135 199h35q-51 -125 -148 -223q-201 -209 -489 -211l-47 -102 q68 -6 114 -35q61 -37 74 -94q4 -16 4 -25q0 -10 -4 -27q-10 -55 -74 -92q-61 -37 -137 -37q-43 0 -88 17q-90 35 -104 104l28 6q6 -16 8 -20q16 -35 63.5 -55.5t92.5 -20.5q72 0 123 30.5t59 73.5q2 6 2 21q0 12 -2 18q-8 43 -59 74q-47 27 -141 39l57 125 q-279 10 -471 211q-205 211 -205 506z" />
<glyph unicode="&#xc8;" horiz-adv-x="901" d="M96 0h4h791v31h-762v669h741v33h-741v668h758v31h-791v-1432zM381 1661h55l119 -154h-39z" />
<glyph unicode="&#xc9;" horiz-adv-x="901" d="M96 0v1432h791v-31h-758v-668h741v-33h-741v-669h762v-31h-791h-4zM446 1503l119 154h56l-136 -154h-39z" />
<glyph unicode="&#xca;" horiz-adv-x="901" d="M96 0v1432h791v-31h-758v-668h741v-33h-741v-669h762v-31h-791h-4zM369 1497l118 148h56l119 -148h-33l-113 123l-115 -123h-32z" />
<glyph unicode="&#xcb;" horiz-adv-x="901" d="M96 0h4h791v31h-762v669h741v33h-741v668h758v31h-791v-1432zM346 1561q0 41 37 41q41 0 41 -41q0 -14 -11.5 -25.5t-29.5 -11.5q-14 0 -25.5 11.5t-11.5 25.5zM594 1561q0 41 37 41q41 0 41 -41q0 -14 -11.5 -25.5t-29.5 -11.5q-14 0 -25.5 11.5t-11.5 25.5z" />
<glyph unicode="&#xcc;" horiz-adv-x="698" d="M29 0h641v31h-305v1372h305v29h-641v-29h305v-1372h-305v-31zM199 1661h55l119 -154h-39z" />
<glyph unicode="&#xcd;" horiz-adv-x="698" d="M29 0v31h305v1372h-305v29h641v-29h-305v-1372h305v-31h-641zM328 1505l118 154h56l-135 -154h-39z" />
<glyph unicode="&#xce;" horiz-adv-x="698" d="M29 0v31h305v1372h-305v29h641v-29h-305v-1372h305v-31h-641zM203 1501l119 148h55l119 -148h-33l-113 123l-114 -123h-33z" />
<glyph unicode="&#xcf;" horiz-adv-x="698" d="M29 0h641v31h-305v1372h305v29h-641v-29h305v-1372h-305v-31zM188 1565q0 41 37 41q41 0 41 -41q0 -14 -11 -25.5t-30 -11.5q-14 0 -25.5 11.5t-11.5 25.5zM436 1565q0 41 37 41q41 0 41 -41q0 -14 -11 -25.5t-30 -11.5q-14 0 -25.5 11.5t-11.5 25.5z" />
<glyph unicode="&#xd1;" d="M96 0v1436l29 -2l952 -1377v1377h31v-1434h-33l-946 1368v-1368h-33zM438 1526q14 61 62 80q72 29 137 -41q37 -39 88 -23q43 18 51 60l23 -7q-14 -61 -66 -79q-63 -27 -117 28q-55 57 -110 35q-35 -14 -43 -59z" />
<glyph unicode="&#xd2;" horiz-adv-x="1540" d="M39 717q0 -301 215 -520q211 -217 516 -217t518 217q215 219 215 520t-215 520q-213 217 -518 217t-516 -217q-215 -219 -215 -520zM72 717q0 287 204.5 495.5t493.5 208.5q291 0 496 -209q203 -207 202.5 -495.5t-202.5 -495.5q-205 -209 -496 -209q-289 0 -493.5 209 t-204.5 496zM625 1675h55l119 -153h-39z" />
<glyph unicode="&#xd3;" horiz-adv-x="1540" d="M39 717q0 301 215 520q211 217 516 217t518 -217q215 -219 215 -520t-215 -520q-213 -217 -518 -217t-516 217q-215 219 -215 520zM72 717q0 -287 204.5 -496t493.5 -209q291 0 496 209q203 207 202.5 496t-202.5 495q-205 209 -496 209q-289 0 -493.5 -208.5 t-204.5 -495.5zM762 1524l119 153h55l-135 -153h-39z" />
<glyph unicode="&#xd4;" horiz-adv-x="1540" d="M39 717q0 301 215 520q211 217 516 217t518 -217q215 -219 215 -520t-215 -520q-213 -217 -518 -217t-516 217q-215 219 -215 520zM72 717q0 -287 204.5 -496t493.5 -209q291 0 496 209q203 207 202.5 496t-202.5 495q-205 209 -496 209q-289 0 -493.5 -208.5 t-204.5 -495.5zM625 1511l118 148h56l119 -148h-33l-113 123l-115 -123h-32z" />
<glyph unicode="&#xd5;" horiz-adv-x="1540" d="M39 717q0 301 215 520q211 217 516 217t518 -217q215 -219 215 -520t-215 -520q-213 -217 -518 -217t-516 217q-215 219 -215 520zM72 717q0 -287 204.5 -496t493.5 -209q291 0 496 209q203 207 202.5 496t-202.5 495q-205 209 -496 209q-289 0 -493.5 -208.5 t-204.5 -495.5zM598 1536q14 61 61 80q72 29 138 -41q37 -39 88 -23q43 18 51 60l22 -6q-14 -61 -65 -80q-63 -27 -117 28q-55 57 -110 35q-35 -14 -43 -59z" />
<glyph unicode="&#xd6;" horiz-adv-x="1540" d="M39 717q0 -301 215 -520q211 -217 516 -217t518 217q215 219 215 520t-215 520q-213 217 -518 217t-516 -217q-215 -219 -215 -520zM72 717q0 287 204.5 495.5t493.5 208.5q291 0 496 -209q203 -207 202.5 -495.5t-202.5 -495.5q-205 -209 -496 -209q-289 0 -493.5 209 t-204.5 496zM606 1573q0 41 37 41q41 0 41 -41q0 -14 -11 -25.5t-30 -11.5q-14 0 -25.5 11.5t-11.5 25.5zM854 1573q0 41 37 41q41 0 41 -41q0 -14 -11.5 -25.5t-29.5 -11.5q-14 0 -25.5 11.5t-11.5 25.5z" />
<glyph unicode="&#xd8;" horiz-adv-x="1540" d="M39 717q0 301 215 520q211 217 516 217q209 0 381 -108l96 151h41l-108 -170q57 -41 108 -90q215 -219 215 -520t-215 -520q-213 -217 -518 -217q-211 0 -383 108l-102 -160h-39l112 178q-61 45 -104 91q-215 219 -215 520zM72 717q0 -287 204 -496q47 -51 101 -86 l756 1184q-166 102 -363 102q-289 0 -493.5 -208.5t-204.5 -495.5zM406 117q164 -104 364 -105q291 0 496 209q203 207 202.5 496t-202.5 495q-61 57 -105 86z" />
<glyph unicode="&#xd9;" horiz-adv-x="1191" d="M94 389q0 -188 153.5 -296.5t348.5 -108.5q123 0 234.5 44t189.5 139t78 220v1045h-33v-1043q0 -174 -143.5 -273.5t-325.5 -99.5t-325.5 98.5t-143.5 272.5v1045h-33v-1043zM489 1659h56l119 -154h-39z" />
<glyph unicode="&#xda;" horiz-adv-x="1191" d="M94 389v1043h33v-1045q0 -174 143.5 -272.5t325.5 -98.5t325.5 99.5t143.5 273.5v1043h33v-1045q0 -125 -78 -220t-189.5 -139t-234.5 -44q-195 0 -348.5 108.5t-153.5 296.5zM565 1505l119 154h55l-135 -154h-39z" />
<glyph unicode="&#xdb;" horiz-adv-x="1191" d="M94 389v1043h33v-1045q0 -174 143.5 -272.5t325.5 -98.5t325.5 99.5t143.5 273.5v1043h33v-1045q0 -125 -78 -220t-189.5 -139t-234.5 -44q-195 0 -348.5 108.5t-153.5 296.5zM453 1501l118 148h56l118 -148h-32l-113 123l-115 -123h-32z" />
<glyph unicode="&#xdc;" horiz-adv-x="1191" d="M94 389q0 -188 153.5 -296.5t348.5 -108.5q123 0 234.5 44t189.5 139t78 220v1045h-33v-1043q0 -174 -143.5 -273.5t-325.5 -99.5t-325.5 98.5t-143.5 272.5v1045h-33v-1043zM455 1565q0 41 37 41q41 0 40 -41q0 -14 -11 -25.5t-29 -11.5q-14 0 -25.5 11.5t-11.5 25.5z M702 1565q0 41 37 41q41 0 41 -41q0 -14 -11 -25.5t-30 -11.5q-14 0 -25.5 11.5t-11.5 25.5z" />
<glyph unicode="&#xdd;" horiz-adv-x="1103" d="M8 1432h39l504 -807l504 807h39l-527 -840v-592h-32v592zM512 1485l119 153h55l-135 -153h-39z" />
<glyph unicode="&#xe0;" d="M8 0l576 1454h34l576 -1454h-35l-196 481h-725l-195 -481h-35zM252 512h698l-350 899zM453 1651h55l119 -154h-39z" />
<glyph unicode="&#xe1;" d="M8 0l576 1454h34l576 -1454h-35l-196 481h-725l-195 -481h-35zM252 512h698l-350 899zM578 1493l118 154h56l-136 -154h-38z" />
<glyph unicode="&#xe2;" d="M8 0l576 1454h34l576 -1454h-35l-196 481h-725l-195 -481h-35zM252 512h698l-350 899zM455 1489l118 147h56l119 -147h-33l-113 123l-115 -123h-32z" />
<glyph unicode="&#xe3;" d="M8 0l576 1454h34l576 -1454h-35l-196 481h-725l-195 -481h-35zM252 512h698l-350 899zM422 1509q14 61 61 80q72 29 138 -41q37 -39 88 -22q43 18 51 59l22 -6q-14 -61 -65 -80q-63 -27 -117 29q-55 57 -111 35q-35 -14 -43 -60z" />
<glyph unicode="&#xe4;" d="M8 0l576 1454h34l576 -1454h-35l-196 481h-725l-195 -481h-35zM252 512h698l-350 899zM438 1565q0 41 37 41q41 0 41 -41q0 -14 -11 -25.5t-30 -11.5q-14 0 -25.5 11.5t-11.5 25.5zM686 1565q0 41 37 41q41 0 41 -41q0 -14 -11.5 -25.5t-29.5 -11.5q-14 0 -25.5 11.5 t-11.5 25.5z" />
<glyph unicode="&#xe5;" d="M8 0l576 1454h34l576 -1454h-35l-196 481h-725l-195 -481h-35zM252 512h698l-350 899zM500 1540q0 43 29.5 74t72.5 31t74 -31t31 -74q0 -45 -31 -74.5t-76 -29.5q-41 0 -70.5 30.5t-29.5 73.5zM537 1540q0 -29 19 -48t46 -19q29 0 48.5 19t19.5 48t-19.5 48.5 t-48.5 19.5q-27 0 -46 -19.5t-19 -48.5z" />
<glyph unicode="&#xe6;" horiz-adv-x="1695" d="M8 0l803 1434h862v-31h-758v-789h742v-30h-742v-553h762v-31h-794v584h-510l-330 -584h-35zM389 614h494v789h-52z" />
<glyph unicode="&#xe7;" horiz-adv-x="1349" d="M0 715q0 293 205 504t495.5 211t495.5 -211q96 -98 147 -224h-34q-47 111 -135 201q-195 201 -473.5 201t-473.5 -201q-197 -203 -196 -481q0 -281 196 -482q197 -203 473.5 -202.5t473.5 202.5q90 92 135 199h34q-51 -125 -147 -223q-195 -203 -471 -211l-47 -100 q68 -6 115 -35q61 -37 73 -94q4 -16 4 -25q0 -10 -4 -27q-10 -55 -73 -92q-61 -37 -138 -37q-43 0 -88 17q-90 35 -104 104l29 6q6 -16 8 -20q16 -35 63 -55.5t92 -20.5q72 0 123 31t60 74q2 6 2 20q0 12 -2 18q-8 43 -60 74q-47 27 -141 39l55 123q-287 4 -487 211 q-205 211 -205 506z" />
<glyph unicode="&#xe8;" horiz-adv-x="901" d="M96 0h4h791v31h-762v669h741v33h-741v668h758v31h-791v-1432zM371 1663h55l119 -154h-39z" />
<glyph unicode="&#xe9;" horiz-adv-x="901" d="M96 0v1432h791v-31h-758v-668h741v-33h-741v-669h762v-31h-791h-4zM463 1505l119 154h55l-135 -154h-39z" />
<glyph unicode="&#xea;" horiz-adv-x="901" d="M96 0v1432h791v-31h-758v-668h741v-33h-741v-669h762v-31h-791h-4zM373 1501l119 148h55l119 -148h-33l-113 123l-114 -123h-33z" />
<glyph unicode="&#xeb;" horiz-adv-x="901" d="M96 0h4h791v31h-762v669h741v33h-741v668h758v31h-791v-1432zM356 1563q0 41 37 41q41 0 41 -41q0 -14 -11 -25.5t-30 -11.5q-14 0 -25.5 11.5t-11.5 25.5zM604 1563q0 41 37 41q41 0 41 -41q0 -14 -11.5 -25.5t-29.5 -11.5q-14 0 -25.5 11.5t-11.5 25.5z" />
<glyph unicode="&#xec;" horiz-adv-x="698" d="M29 0h641v31h-305v1372h305v29h-641v-29h305v-1372h-305v-31zM203 1659h55l119 -154h-39z" />
<glyph unicode="&#xed;" horiz-adv-x="698" d="M29 0v31h305v1372h-305v29h641v-29h-305v-1372h305v-31h-641zM328 1507l118 154h56l-135 -154h-39z" />
<glyph unicode="&#xee;" horiz-adv-x="698" d="M29 0v31h305v1372h-305v29h641v-29h-305v-1372h305v-31h-641zM205 1503l119 148h55l119 -148h-33l-113 123l-114 -123h-33z" />
<glyph unicode="&#xef;" horiz-adv-x="698" d="M29 0h641v31h-305v1372h305v29h-641v-29h305v-1372h-305v-31zM188 1565q0 41 37 41q41 0 41 -41q0 -14 -11 -25.5t-30 -11.5q-14 0 -25.5 11.5t-11.5 25.5zM436 1565q0 41 37 41q41 0 41 -41q0 -14 -11 -25.5t-30 -11.5q-14 0 -25.5 11.5t-11.5 25.5z" />
<glyph unicode="&#xf1;" d="M96 0v1436l29 -2l952 -1377v1377h31v-1434h-33l-946 1368v-1368h-33zM434 1530q14 61 62 80q72 29 137 -41q37 -39 88 -23q43 18 51 60l23 -7q-14 -61 -66 -79q-63 -27 -117 28q-55 57 -110 35q-35 -14 -43 -59z" />
<glyph unicode="&#xf2;" horiz-adv-x="1540" d="M39 717q0 -301 215 -520q211 -217 516 -217t518 217q215 219 215 520t-215 520q-213 217 -518 217t-516 -217q-215 -219 -215 -520zM72 717q0 287 204.5 495.5t493.5 208.5q291 0 496 -209q203 -207 202.5 -495.5t-202.5 -495.5q-205 -209 -496 -209q-289 0 -493.5 209 t-204.5 496zM651 1683h56l118 -153h-39z" />
<glyph unicode="&#xf3;" horiz-adv-x="1540" d="M39 717q0 301 215 520q211 217 516 217t518 -217q215 -219 215 -520t-215 -520q-213 -217 -518 -217t-516 217q-215 219 -215 520zM72 717q0 -287 204.5 -496t493.5 -209q291 0 496 209q203 207 202.5 496t-202.5 495q-205 209 -496 209q-289 0 -493.5 -208.5 t-204.5 -495.5zM772 1526l119 153h55l-135 -153h-39z" />
<glyph unicode="&#xf4;" horiz-adv-x="1540" d="M39 717q0 301 215 520q211 217 516 217t518 -217q215 -219 215 -520t-215 -520q-213 -217 -518 -217t-516 217q-215 219 -215 520zM72 717q0 -287 204.5 -496t493.5 -209q291 0 496 209q203 207 202.5 496t-202.5 495q-205 209 -496 209q-289 0 -493.5 -208.5 t-204.5 -495.5zM645 1524l119 147h55l119 -147h-33l-112 123l-115 -123h-33z" />
<glyph unicode="&#xf5;" horiz-adv-x="1540" d="M39 717q0 301 215 520q211 217 516 217t518 -217q215 -219 215 -520t-215 -520q-213 -217 -518 -217t-516 217q-215 219 -215 520zM72 717q0 -287 204.5 -496t493.5 -209q291 0 496 209q203 207 202.5 496t-202.5 495q-205 209 -496 209q-289 0 -493.5 -208.5 t-204.5 -495.5zM625 1542q14 61 61 80q72 29 137 -41q37 -39 88 -22q43 18 52 59l22 -6q-14 -61 -65 -80q-63 -27 -117 29q-55 57 -111 34q-35 -14 -43 -59z" />
<glyph unicode="&#xf6;" horiz-adv-x="1540" d="M39 717q0 -301 215 -520q211 -217 516 -217t518 217q215 219 215 520t-215 520q-213 217 -518 217t-516 -217q-215 -219 -215 -520zM72 717q0 287 204.5 495.5t493.5 208.5q291 0 496 -209q203 -207 202.5 -495.5t-202.5 -495.5q-205 -209 -496 -209q-289 0 -493.5 209 t-204.5 496zM627 1585q0 41 37 41q41 0 41 -41q0 -14 -11.5 -25.5t-29.5 -11.5q-14 0 -25.5 11.5t-11.5 25.5zM874 1585q0 41 37 41q41 0 41 -41q0 -14 -11 -25.5t-30 -11.5q-14 0 -25.5 11.5t-11.5 25.5z" />
<glyph unicode="&#xf8;" horiz-adv-x="1540" d="M39 717q0 301 215 520q211 217 516 217q209 0 381 -108l96 151h41l-108 -170q57 -41 108 -90q215 -219 215 -520t-215 -520q-213 -217 -518 -217q-211 0 -383 108l-102 -160h-39l112 178q-61 45 -104 91q-215 219 -215 520zM72 717q0 -287 204 -496q47 -51 101 -86 l756 1184q-166 102 -363 102q-289 0 -493.5 -208.5t-204.5 -495.5zM406 117q164 -104 364 -105q291 0 496 209q203 207 202.5 496t-202.5 495q-61 57 -105 86z" />
<glyph unicode="&#xf9;" horiz-adv-x="1191" d="M94 389q0 -188 153.5 -296.5t348.5 -108.5q123 0 234.5 44t189.5 139t78 220v1045h-33v-1043q0 -174 -143.5 -273.5t-325.5 -99.5t-325.5 98.5t-143.5 272.5v1045h-33v-1043zM471 1661h55l119 -154h-39z" />
<glyph unicode="&#xfa;" horiz-adv-x="1191" d="M94 389v1043h33v-1045q0 -174 143.5 -272.5t325.5 -98.5t325.5 99.5t143.5 273.5v1043h33v-1045q0 -125 -78 -220t-189.5 -139t-234.5 -44q-195 0 -348.5 108.5t-153.5 296.5zM575 1503l119 154h56l-136 -154h-39z" />
<glyph unicode="&#xfb;" horiz-adv-x="1191" d="M94 389v1043h33v-1045q0 -174 143.5 -272.5t325.5 -98.5t325.5 99.5t143.5 273.5v1043h33v-1045q0 -125 -78 -220t-189.5 -139t-234.5 -44q-195 0 -348.5 108.5t-153.5 296.5zM449 1516l118 147h56l118 -147h-32l-113 122l-115 -122h-32z" />
<glyph unicode="&#xfc;" horiz-adv-x="1191" d="M94 389q0 -188 153.5 -296.5t348.5 -108.5q123 0 234.5 44t189.5 139t78 220v1045h-33v-1043q0 -174 -143.5 -273.5t-325.5 -99.5t-325.5 98.5t-143.5 272.5v1045h-33v-1043zM436 1565q0 41 37 41q41 0 41 -41q0 -14 -11 -25.5t-30 -11.5q-14 0 -25.5 11.5t-11.5 25.5z M684 1565q0 41 37 41q41 0 41 -41q0 -14 -11.5 -25.5t-29.5 -11.5q-14 0 -25.5 11.5t-11.5 25.5z" />
<glyph unicode="&#xfd;" horiz-adv-x="1103" d="M8 1432h39l504 -807l504 807h39l-527 -840v-592h-32v592zM510 1505l119 154h55l-135 -154h-39z" />
<glyph unicode="&#xff;" horiz-adv-x="1103" d="M8 1432l527 -840v-592h32v592l527 840h-39l-504 -807l-504 807h-39zM393 1565q0 41 37 41q41 0 41 -41q0 -14 -11 -25.5t-30 -11.5q-14 0 -25.5 11.5t-11.5 25.5zM641 1565q0 41 37 41q41 0 41 -41q0 -14 -11.5 -25.5t-29.5 -11.5q-14 0 -25.5 11.5t-11.5 25.5z" />
<glyph unicode="&#x152;" horiz-adv-x="1697" d="M39 717q0 152 58.5 295t156.5 243q188 195 516 195q57 0 123 -10h788v-31h-757v-676h741v-33h-741v-673h762v-31h-777q-68 -12 -139 -12q-324 0 -516 198q-100 100 -157.5 242.5t-57.5 292.5zM72 717q0 -143 55 -278.5t149 -231.5q188 -190 494 -191q66 0 121 9v1382 q-66 10 -121 10q-309 0 -494 -186q-94 -96 -149 -232.5t-55 -281.5z" />
<glyph unicode="&#x153;" horiz-adv-x="1697" d="M39 717q0 152 58.5 295t156.5 243q188 195 516 195q57 0 123 -10h788v-31h-757v-676h741v-33h-741v-673h762v-31h-777q-68 -12 -139 -12q-324 0 -516 198q-100 100 -157.5 242.5t-57.5 292.5zM72 717q0 -143 55 -278.5t149 -231.5q188 -190 494 -191q66 0 121 9v1382 q-66 10 -121 10q-309 0 -494 -186q-94 -96 -149 -232.5t-55 -281.5z" />
<glyph unicode="&#x178;" horiz-adv-x="1103" d="M8 1432l527 -840v-592h32v592l527 840h-39l-504 -807l-504 807h-39zM389 1565q0 41 37 41q41 0 41 -41q0 -14 -11.5 -25.5t-29.5 -11.5q-14 0 -25.5 11.5t-11.5 25.5zM637 1565q0 41 37 41q41 0 41 -41q0 -14 -11.5 -25.5t-29.5 -11.5q-14 0 -25.5 11.5t-11.5 25.5z" />
<glyph unicode="&#x2c6;" horiz-adv-x="638" d="M180 1477l119 147h55l119 -147h-33l-112 122l-115 -122h-33z" />
<glyph unicode="&#x2dc;" horiz-adv-x="712" d="M174 1497q14 61 62 80q72 29 137 -41q37 -39 88 -23q43 18 51 60l23 -6q-14 -61 -66 -80q-63 -27 -117 29q-55 57 -110 34q-35 -14 -43 -59z" />
<glyph unicode="&#x2013;" horiz-adv-x="1024" d="M205 512v205h614v-205h-614z" />
<glyph unicode="&#x2014;" horiz-adv-x="2048" d="M205 512v205h1638v-205h-1638z" />
<glyph unicode="&#x2018;" horiz-adv-x="503" d="M152 1640h55l119 -153h-39z" />
<glyph unicode="&#x2019;" horiz-adv-x="239" d="M102 1030v406h33v-406h-33z" />
<glyph unicode="&#x201c;" horiz-adv-x="346" d="M90 1030v406h33v-406h-33zM219 1030v406h33v-406h-33z" />
<glyph unicode="&#x201d;" horiz-adv-x="346" d="M90 1030v406h33v-406h-33zM219 1030v406h33v-406h-33z" />
<glyph unicode="&#x2026;" horiz-adv-x="798" d="M98 33q0 41 37 41q41 0 41 -41q0 -14 -11 -25.5t-30 -11.5q-14 0 -25.5 11.5t-11.5 25.5zM338 33q0 41 37 41q41 0 41 -41q0 -14 -11.5 -25.5t-29.5 -11.5q-14 0 -25.5 11.5t-11.5 25.5zM573 33q0 41 37 41q41 0 41 -41q0 -14 -11 -25.5t-30 -11.5q-14 0 -25.5 11.5 t-11.5 25.5z" />
<glyph unicode="&#x2044;" horiz-adv-x="667" />
<glyph unicode="&#x20ac;" horiz-adv-x="1443" d="M-18 645v33h94v37v43h-94v33h98q25 246 201 428q205 211 495.5 211t495.5 -211q96 -98 147 -224h-35q-47 111 -135 201q-195 201 -473 201t-473 -201q-168 -174 -192 -405h372v-33h-377v-43v-37h377v-33h-374q25 -242 194 -412q197 -203 473.5 -202.5t472.5 202.5 q90 92 135 199h35q-51 -125 -147 -223q-205 -211 -496 -211t-495 211q-178 182 -203 436h-96z" />
<glyph unicode="&#x2122;" horiz-adv-x="2514" d="M1163 0v1434h33l594 -879l596 879h33v-1434h-31v1386l-584 -868h-26l-584 868v-1386h-31zM18 1401v33h1022v-33h-495v-1407h-31v1407h-496z" />
<glyph unicode="&#xe000;" horiz-adv-x="1430" d="M0 1430h1430v-1430h-1430v1430z" />
<glyph unicode="&#xfb01;" horiz-adv-x="1374" d="M96 0v1432h772v-31h-741v-668h655v-33h-655v-700h-31zM696 0v29h305v1403h336v-29h-305v-1374h305v-29h-641z" />
<glyph unicode="&#xfb02;" horiz-adv-x="1830" d="M96 0v1432h772v-31h-741v-668h655v-33h-655v-700h-31zM1001 0v1432h33v-1399h770v-33h-803z" />
<glyph unicode="&#xfb03;" horiz-adv-x="2543" d="M1855 0v31h305v1372h-305v29h641v-29h-305v-1372h305v-31h-641zM999 0v1432h772v-31h-741v-668h655v-33h-655v-700h-31zM96 0v1432h772v-31h-741v-668h655v-33h-655v-700h-31z" />
<glyph unicode="&#xfb04;" horiz-adv-x="2738" d="M1902 0v1432h33v-1399h770v-33h-803zM999 0v1432h772v-31h-741v-668h655v-33h-655v-700h-31zM96 0v1432h772v-31h-741v-668h655v-33h-655v-700h-31z" />
</font>
</defs>
</svg>
